+86 15516432285

rocking at the tweed mill livin blues

rocking at the tweed mill livin blues

Livin' Blues – Rocking At The Tweed Mill (1973, Vinyl ...

2021-10-12  View credits, reviews, tracks and shop for the 1973 Vinyl release of "Rocking At The Tweed Mill" on Discogs.

Read More
Livin' Blues - Rocking At The Tweed Mill Releases Discogs

Discover releases, reviews, credits, songs, and more about Livin' Blues - Rocking At The Tweed Mill at Discogs. Complete your Livin' Blues collection.

Read More
Rocking at the Tweed Mill by Livin' Blues (Album, Blues ...

2021-6-10  This was the first Livin' Blues album not to be produced by ex-Golden Earring drummer Jaap Eggermont and was instead produced by Englishman Mike Vernon, who had experience producing other blues rock groups such as John John Mayall, Ten Years After and Fleetwood Mac.It was recorded at his studio in Chipping Norton, Oxfordshire (The album cover shows the band in front of the Bliss Tweed

Read More
LIVIN BLUES - ROCKING AT THE TWEED MILL - Music On

Livin' Blues was a Dutch blues rock group formed in The Hague in 1967 by guitarist and front man Ted Oberg. During the early 70s they were considered, together with Cuby The Blizzards, as the absolute top of the Dutch blues scene. The Rocking At The Tweed Mill album was recorded in the United Kingdom and produced by Mike Vernon, who was working with British blues artists and groups like the ...

Read More
LIVIN BLUES - ROCKING AT THE TWEED MILL - Music On

Livin' Blues was a Dutch blues rock group formed in The Hague in 1967 by guitarist and front man Ted Oberg. During the early 70s they were considered, together with Cuby The Blizzards, as the absolute top of the Dutch blues scene. The Rocking At The

Read More
livin' blues: rocking at the tweed mill (LP) LPCDreissues

The Rocking At The Tweed Mill album was recorded in the United Kingdom and produced by Mike Vernon, who was working with British blues artists and groups like the Bluesbreakers, David Bowie and Peter Green amongst others. The album includes the

Read More
Rockin' at the Tweedmill - Livin' Blues User Reviews ...

Read and write album reviews for Rockin' at the Tweedmill by Livin' Blues on AllMusic

Read More
(Blues) Livin' Blues - Rocking At The Tweed Mill (SHM ...

2011-3-17  Filename C:\xxx\Livin' Blues - Rocking At The Tweed Mill (1972)\Livin' Blues - Rocking At The Tweed Mill.wav Peak level 100.0 % Range quality 99.9 % Test CRC 92DA0135 Copy CRC 92DA0135 Copy OK No errors occurred AccurateRip summary Track 1 not

Read More
(Blues Rock) [CD] Livin' Blues - Discography 1969-2019 (21 ...

Filename D:\Sket4er\Livin' Blues – Rocking At The Tweed Mill (1973) 2013\Livin' Blues - Rocking At The Tweed Mill.wav Peak level 68.1 % Extraction speed 2.8 X Range quality 99.9 % Test CRC 04771380 Copy CRC 04771380 Copy OK No errors occurred AccurateRip summary

Read More
Recensie: Livin’ Blues - Rocking At The Tweed Mill Blues ...

2017-9-17  Livin’ Blues – Rocking At The Tweed Mill. Format: 180 grams Vinyl LP / Label: Music On Vinyl. Releasedatum: 13 januari 2017. Tekst: Peter Marinus. Livin’ Blues was een Haagse blues band, die samen met Cuby The Blizzards de top van de Nederblues vormden in de jaren 60 en 70. Toch kreeg Livin’ Blues nooit echt dezelfde waardering als de ...

Read More
LIVIN BLUES - ROCKING AT THE TWEED MILL - Music On

Livin' Blues was a Dutch blues rock group formed in The Hague in 1967 by guitarist and front man Ted Oberg. During the early 70s they were considered, together with Cuby The Blizzards, as the absolute top of the Dutch blues scene. The Rocking At The

Read More
‎Rocking At the Tweed Mill by Livin' Blues on Apple Music

Listen to Rocking At the Tweed Mill by Livin' Blues on Apple Music. Stream songs including "Shady Girl, Shady Girl", "Fool On You" and more.

Read More
Album Rocking At The Tweed Mill, Livin' Blues Qobuz ...

Rocking At The Tweed Mill Livin' Blues. Released on 01/01/1973 by Universal Music, a division of Universal International Music BV; Main artist: Livin' Blues; Genre: Pop/Rock Pop; Available in. 16-Bit CD Quality 44.1 kHz - Stereo. Unlimited Streaming Listen to this album in high quality now on our apps ...

Read More
Rocking at the Tweed Mill by Livin' Blues (Album; HF 9524 ...

Rocking at the Tweed Mill, an Album by Livin' Blues. Genres: Blues Rock.

Read More
LIVIN' BLUES - Bamboozle / Rocking at the Tweed Mil ...

"Bamboozle" is a fine display and showcase for the band's other than ordinary Blues playing. This being unlike much of their other records ( or cd's) . Buyer , please take notice, at the price for the singlular "Bamboozle" lp ,I opted to go for the two-fer with "Rocking At The Tweed Mill" .

Read More
Rockin' At The Tweed Mill (Gatefold sleeve) [180 gm black ...

Buy Rockin' At The Tweed Mill (Gatefold sleeve) [180 gm black vinyl] at Amazon. Rockin' At The Tweed Mill (Gatefold sleeve) [180 gm black vinyl] - Livin' Blues Select Your Cookie Preferences

Read More
(Blues) Livin' Blues - Rocking At The Tweed Mill (SHM ...

2011-3-17  Filename C:\xxx\Livin' Blues - Rocking At The Tweed Mill (1972)\Livin' Blues - Rocking At The Tweed Mill.wav Peak level 100.0 % Range quality 99.9 % Test CRC 92DA0135 Copy CRC 92DA0135 Copy OK No errors occurred AccurateRip summary Track 1 not

Read More
Livin' Blues CD: Complete Album Collection (12-CD) - Bear ...

Wang Dang Doodle (Philips 1970) 03. Bamboozle (Philips 1972) 04. Rocking At The Tweed Mill (Philips 1973) 05. Ram Jam Josey (Ariola 1973) 06. Live '75 (Ariola 1975) 07. Blue Breeze (Ariola 1976) 08. Now (Bounce Records 1987). 09. Snake Dance Live 89

Read More
(Blues Rock) [CD] Livin' Blues - Discography 1969-2019 (21 ...

Filename D:\Sket4er\Livin' Blues – Rocking At The Tweed Mill (1973) 2013\Livin' Blues - Rocking At The Tweed Mill.wav Peak level 68.1 % Extraction speed 2.8 X Range quality 99.9 % Test CRC 04771380 Copy CRC 04771380 Copy OK No errors occurred AccurateRip summary

Read More
LIVIN BLUES ROCKING AT THE TWEED MILL 1972 MINT LP

Entdecken Sie LIVIN BLUES ROCKING AT THE TWEED MILL 1972 MINT LP BLUES ROCK in der großen Auswahl bei eBay. Kostenlose Lieferung für viele Artikel!

Read More
LIVIN' BLUES - Bamboozle / Rocking at the Tweed Mil ...

"Bamboozle" is a fine display and showcase for the band's other than ordinary Blues playing. This being unlike much of their other records ( or cd's) . Buyer , please take notice, at the price for the singlular "Bamboozle" lp ,I opted to go for the two-fer with "Rocking At The Tweed Mill" .

Read More
Album Rocking At The Tweed Mill, Livin' Blues Qobuz ...

Rocking At The Tweed Mill Livin' Blues. Released on 01/01/1973 by Universal Music, a division of Universal International Music BV; Main artist: Livin' Blues; Genre: Pop/Rock Pop; Available in. 16-Bit CD Quality 44.1 kHz - Stereo. Unlimited Streaming Listen to this album in high quality now on our apps ...

Read More
Rockin' At The Tweed Mill (Gatefold sleeve) [180 gm black ...

Buy Rockin' At The Tweed Mill (Gatefold sleeve) [180 gm black vinyl] at Amazon. Rockin' At The Tweed Mill (Gatefold sleeve) [180 gm black vinyl] - Livin' Blues Select Your Cookie Preferences

Read More
Livin' Blues CD: Complete Album Collection (12-CD) - Bear ...

Wang Dang Doodle (Philips 1970) 03. Bamboozle (Philips 1972) 04. Rocking At The Tweed Mill (Philips 1973) 05. Ram Jam Josey (Ariola 1973) 06. Live '75 (Ariola 1975) 07. Blue Breeze (Ariola 1976) 08. Now (Bounce Records 1987). 09. Snake Dance Live 89

Read More
Livin' Blues LP: Rocking At The Tweed Mill (LP, 180g Vinyl ...

Livin' Blues Rocking At The Tweed Mill (LP, 180g Vinyl) Benachrichtigen Sie mich, sobald der Artikel lieferbar ist. Die Datenschutzbestimmungen habe ich zur Kenntnis genommen

Read More
(Blues Rock) [CD] Livin' Blues - Discography 1969-2019 (21 ...

Filename D:\Sket4er\Livin' Blues – Rocking At The Tweed Mill (1973) 2013\Livin' Blues - Rocking At The Tweed Mill.wav Peak level 68.1 % Extraction speed 2.8 X Range quality 99.9 % Test CRC 04771380 Copy CRC 04771380 Copy OK No errors occurred AccurateRip summary

Read More
tweed IsraBox

Livin' Blues - Rocking At The Tweed Mill (1973/2020) 19-02-2020, 16:15 Artist: Livin' Blues Title: Rocking At The Tweed Mill Year Of Release: 1973/2020 Genre: Blues Rock Quality: 320 kbps FLAC (tracks) Total Size: 90 mb 242 mb

Read More
totty: too (LP) LPCDreissues

livin' blues rocking at the tweed mill . jumbo vietato ai minori di 18 anni (orange) ... 2 Avalanche Of Love 3 Bass Mint 4 Standin´ In Heartaches 5 It´s Up To You 6 Scratched Records 7 Livin´In The Streets 8 I´ve Seen Miracles 9 In Memory Of Jimi Hendrix 10 Parable Of The Lost Astronaut.

Read More
Blues » Page 12 » GetMetal CLUB - new metal and core

Livin' Blues - Rocking At The Tweed Mill (Japan Edition) (2011) author: MorPeh 20-04-2021, 17:39 Livin' Blues - Rocking At The Tweed Mill

Read More
ハード&ヘヴィー – タグ "ハード"– ページ 2 – out there

LIVIN’ BLUES – Rocking at the tweed mill 通常価格 ¥15,800 セール価格 ¥15,800 セール 単価 / あたり LOYDE lobby – Obsecration LOYDE lobby – Obsecration 通常価格 ¥22,800 セール価格 ...

Read More